<?xml version="1.0" standalone="no"?>
<!DOCTYPE svg PUBLIC "-//W3C//DTD SVG 1.1//EN" "http://www.w3.org/Graphics/SVG/1.1/DTD/svg11.dtd" >
<svg xmlns="http://www.w3.org/2000/svg">
<metadata>
<json>
<![CDATA[
{
	"fontFamily": "CalciteWebCoreIcons",
	"majorVersion": 1,
	"minorVersion": 0,
	"fontURL": "http://www.esri.com/",
	"description": "CalciteWebCoreIcons\nFont generated by IcoMoon.",
	"copyright": "Esri",
	"designerURL": "http://github.com/esri",
	"license": "Apache License – 2.0",
	"licenseURL": "http://www.apache.org/licenses/LICENSE-2.0",
	"version": "Version 1.0",
	"fontId": "CalciteWebCoreIcons",
	"psName": "CalciteWebCoreIcons",
	"subFamily": "Regular",
	"fullName": "CalciteWebCoreIcons"
}
]]>
</json>
</metadata>
<defs>
<font id="CalciteWebCoreIcons" horiz-adv-x="1024">
<font-face units-per-em="1024" ascent="960" descent="-64" />
<missing-glyph horiz-adv-x="1024" />
<glyph unicode="&#x20;" horiz-adv-x="512" d="" />
<glyph unicode="&#xe600;" glyph-name="close" data-tags="close" d="M588.934 448l316.813-316.814-76.934-76.934-316.812 316.813-316.813-316.813-76.934 76.934 316.813 316.814-316.813 316.748 76.934 76.941 316.813-316.755 316.812 316.813 76.934-76.998-316.813-316.748z" />
<glyph unicode="&#xe601;" glyph-name="drag-horizontal" data-tags="drag-horizontal" d="M896 704h-768c-35.188 0-64 28.812-64 64v0c0 35.186 28.812 64 64 64h768c35.187 0 64-28.814 64-64v0c0-35.188-28.813-64-64-64zM896 384h-768c-35.188 0-64 28.812-64 64v0c0 35.186 28.812 64 64 64h768c35.187 0 64-28.814 64-64v0c0-35.188-28.813-64-64-64zM896 64h-768c-35.188 0-64 28.812-64 64v0c0 35.186 28.812 64 64 64h768c35.187 0 64-28.814 64-64v0c0-35.188-28.813-64-64-64z" />
<glyph unicode="&#xe602;" glyph-name="drag-vertical" data-tags="drag-vertical" d="M768 64v768c0 35.186 28.812 64 64 64v0c35.187 0 64-28.814 64-64v-768c0-35.188-28.813-64-64-64v0c-35.188 0-64 28.812-64 64zM448 64v768c0 35.186 28.812 64 64 64v0c35.187 0 64-28.814 64-64v-768c0-35.188-28.813-64-64-64v0c-35.188 0-64 28.812-64 64zM128 64v768c0 35.186 28.812 64 64 64v0c35.187 0 64-28.814 64-64v-768c0-35.188-28.813-64-64-64v0c-35.188 0-64 28.812-64 64z" />
<glyph unicode="&#xe603;" glyph-name="handle-horizontal" data-tags="handle-horizontal" d="M1012.314 448c0-64.238-52.075-116.314-116.314-116.314s-116.314 52.075-116.314 116.314c0 64.238 52.075 116.314 116.314 116.314s116.314-52.075 116.314-116.314zM244.282 448c0-64.221-52.061-116.282-116.282-116.282s-116.282 52.061-116.282 116.282c0 64.221 52.061 116.282 116.282 116.282s116.282-52.061 116.282-116.282zM628.282 448c0-64.221-52.061-116.282-116.282-116.282s-116.282 52.061-116.282 116.282c0 64.221 52.061 116.282 116.282 116.282s116.282-52.061 116.282-116.282z" />
<glyph unicode="&#xe604;" glyph-name="handle-vertical" data-tags="handle-vertical" d="M628.282 64c0-64.221-52.061-116.282-116.282-116.282s-116.282 52.061-116.282 116.282c0 64.221 52.061 116.282 116.282 116.282s116.282-52.061 116.282-116.282zM628.314 832c0-64.238-52.075-116.314-116.314-116.314s-116.314 52.075-116.314 116.314c0 64.238 52.075 116.314 116.314 116.314s116.314-52.075 116.314-116.314zM628.314 448c0-64.238-52.075-116.314-116.314-116.314s-116.314 52.075-116.314 116.314c0 64.238 52.075 116.314 116.314 116.314s116.314-52.075 116.314-116.314z" />
<glyph unicode="&#xe605;" glyph-name="check-mark" data-tags="check-mark" d="M381.657 256l-220.218 220.249-96-96 316.218-316.249 616.877 616.716-96.032 96.032z" />
<glyph unicode="&#xe606;" glyph-name="left-triangle-arrow" data-tags="left-triangle-arrow" d="M704 0l-448 448 448 448v-896z" />
<glyph unicode="&#xe607;" glyph-name="right-triangle-arrow" data-tags="right-triangle-arrow" d="M320 896l448-448-448-448v896z" />
<glyph unicode="&#xe608;" glyph-name="down-arrow" data-tags="down-arrow" d="M960 640l-448-448-448 448h896z" />
<glyph unicode="&#xe609;" glyph-name="up-arrow" data-tags="up-arrow" d="M64 192l448 448 448-448h-896z" />
<glyph unicode="&#xe60a;" glyph-name="overview-arrow-bottom-left" data-tags="overview-arrow-bottom-left" d="M858.501 576l-218.501 218.502-256-256-256 256v-730.502h730.501l-256 256 256 256z" />
<glyph unicode="&#xe60b;" glyph-name="overview-arrow-bottom-right" data-tags="overview-arrow-bottom-right" d="M640 538.502l-256 256-218.503-218.502 256-256-256-256h730.503v730.502l-256-256z" />
<glyph unicode="&#xe60c;" glyph-name="overview-arrow-top-left" data-tags="overview-arrow-top-left" d="M858.502 832h-730.502v-730.503l256 256 256-256 218.502 218.503-256 256 256 256z" />
<glyph unicode="&#xe60d;" glyph-name="overview-arrow-top-right" data-tags="overview-arrow-top-right" d="M165.497 832l256-256-256-256 218.503-218.503 256 256 256-256v730.503h-730.503z" />
<glyph unicode="&#xe60e;" glyph-name="maximize" data-tags="maximize" d="M64 832v-768h896v768h-896zM896 128h-768v512h768v-512z" />
<glyph unicode="&#xe60f;" glyph-name="minimize" data-tags="minimize" d="M1024 896h-704v-256h-320v-640h704v256h320v640zM640 64h-576v448h576v-448zM960 320h-256v320h-320v128h576v-448z" />
<glyph unicode="&#xe610;" glyph-name="checkbox-unchecked" data-tags="checkbox-unchecked" d="M64 896v-896h896v896h-896zM832 128h-640v640h640v-640z" />
<glyph unicode="&#xe611;" glyph-name="checkbox-checked" data-tags="checkbox-checked" d="M64 896v-896h896v896h-896zM832 128h-640v640h640v-640zM415.75 219.315l-159.686 171.059 64 64 95.219-99.814 284.845 284.812 67.872-67.872-352.25-352.186z" />
<glyph unicode="&#xe612;" glyph-name="radio-unchecked" data-tags="radio-unchecked" d="M512 870.406c-233.28 0-422.407-189.030-422.407-422.406 0-233.191 189.127-422.375 422.407-422.375s422.406 189.184 422.406 422.375c0 233.376-189.126 422.406-422.406 422.406zM512 112.748c-184.845 0-335.252 150.502-335.252 335.252 0 184.876 150.406 335.251 335.252 335.251s335.251-150.374 335.251-335.251c0-184.749-150.406-335.252-335.251-335.252z" />
<glyph unicode="&#xe613;" glyph-name="radio-checked" data-tags="radio-checked" d="M691.187 448c0-98.81-80.378-179.188-179.187-179.188-98.81 0-179.188 80.378-179.188 179.188s80.378 179.187 179.188 179.187c98.809 0 179.187-80.378 179.187-179.187zM934.406 448c0-233.191-189.126-422.375-422.406-422.375s-422.407 189.184-422.407 422.375c0 233.376 189.127 422.406 422.407 422.406s422.406-189.030 422.406-422.406zM847.251 448c0 184.876-150.406 335.251-335.251 335.251s-335.252-150.374-335.252-335.251c0-184.749 150.406-335.252 335.252-335.252 184.844 0 335.251 150.502 335.251 335.252z" />
<glyph unicode="&#xe614;" glyph-name="up-arrow-circled" data-tags="up-arrow-circled" d="M513.498-52.685c275.693 0 499.187 223.437 499.187 499.187 0 275.686-223.494 499.187-499.187 499.187-275.75 0-499.187-223.501-499.187-499.187 0-275.75 223.437-499.187 499.187-499.187zM513.498 868.876c232.941 0 422.374-189.44 422.374-422.374 0-232.941-189.434-422.374-422.374-422.374-232.934 0-422.374 189.433-422.374 422.374 0 232.934 189.44 422.374 422.374 422.374zM449.498 547.686l-193.498-199.622v161.747c92.627 93.19 257.498 256.691 257.498 256.691s158.502-162.003 254.502-255.437v-163.379l-192 200v-419.686h-126.502v419.686z" />
<glyph unicode="&#xe615;" glyph-name="down-arrow-circled" data-tags="down-arrow-circled" d="M512 947.187c-275.687 0-499.188-223.437-499.188-499.187 0-275.687 223.501-499.188 499.188-499.188 275.75 0 499.187 223.501 499.187 499.188 0 275.75-223.437 499.187-499.187 499.187zM512 25.625c-232.935 0-422.375 189.44-422.375 422.375s189.44 422.406 422.375 422.406c232.934 0 422.374-189.472 422.374-422.406s-189.44-422.375-422.374-422.375zM576 346.809l192 199.629v-161.754c-92.628-93.184-256-256.684-256-256.684s-160 162.003-256 255.436v163.373l192-200v421.191h128v-421.191z" />
<glyph unicode="&#xe616;" glyph-name="left-arrow-circled" data-tags="left-arrow-circled" d="M512 947.187c-275.687 0-499.188-223.437-499.188-499.187 0-275.687 223.501-499.188 499.188-499.188 275.75 0 499.186 223.501 499.186 499.188 0 275.75-223.437 499.187-499.186 499.187zM512 25.625c-232.935 0-422.375 189.44-422.375 422.375s189.44 422.406 422.375 422.406c232.934 0 422.374-189.472 422.374-422.406s-189.44-422.375-422.374-422.375zM832 512v-128h-421.191l200-192h-163.373c-93.434 96-255.436 256-255.436 256s163.5 163.372 256.684 256h161.754l-199.629-192h421.191z" />
<glyph unicode="&#xe617;" glyph-name="right-arrow-circled" data-tags="right-arrow-circled" d="M512 947.187c-275.687 0-499.188-223.437-499.188-499.187 0-275.687 223.501-499.188 499.188-499.188 275.749 0 499.186 223.501 499.186 499.188 0 275.75-223.437 499.187-499.186 499.187zM512 25.625c-232.935 0-422.375 189.44-422.375 422.375s189.44 422.406 422.375 422.406c232.933 0 422.373-189.472 422.373-422.406s-189.44-422.375-422.373-422.375zM832 447.936c0 0-163.502-159.936-256.686-255.936h-161.754l199.629 192h-421.189v128h421.189l-200 192h163.373c93.44-93.312 255.438-256.064 255.438-256.064z" />
<glyph unicode="&#xe618;" glyph-name="zoom-out-fixed" data-tags="zoom-out-fixed" d="M0 960h384v-96h-221.28l221.28-215.124v-67.5l-5.376-5.376h-67.751l-214.873 221.126v-221.126h-96v384zM640 960v-96h221.28l-221.28-215.124v-67.5l5.376-5.376h67.75l214.874 221.126v-221.126h96v384h-384zM928 98.873l-214.874 221.127h-67.75l-5.376-5.376v-67.501l221.28-215.123h-221.28v-96h384v384h-96v-221.127zM310.873 320l-214.873-221.127v221.127h-96v-384h384v96h-221.28l221.28 215.123v67.501l-5.376 5.376h-67.751z" />
<glyph unicode="&#xe619;" glyph-name="zoom-in-fixed" data-tags="zoom-in-fixed" d="M640 320h384v-96h-221.281l221.281-215.124v-67.5l-5.376-5.376h-67.751l-214.873 221.126v-221.126h-96v384zM0 224h221.279l-221.279-215.124v-67.5l5.376-5.376h67.75l214.874 221.126v-221.126h96v384h-384v-96zM288 738.873l-214.874 221.127h-67.75l-5.376-5.376v-67.501l221.279-215.123h-221.279v-96h384v384h-96v-221.127zM1024 954.624l-5.376 5.376h-67.751l-214.873-221.127v221.127h-96v-384h384v96h-221.281l221.281 215.123v67.501z" />
<glyph unicode="&#xe61a;" glyph-name="refresh" data-tags="refresh" d="M960 960v-448h-448v96h290.56c-56.685 96-165.184 172.812-290.56 172.812-113.127 0-212.25-57.498-272.314-144.064l-120.563 25.626c75.878 139.123 223.187 233.626 392.877 233.626 143.065 0 270.124-67.316 352-171.751v235.751h96zM512 115.187c-125.376 0-233.876 76.813-290.56 172.813h290.56v96h-448v-448h96v235.814c81.875-104.499 208.934-171.814 352-171.814 169.689 0 316.998 94.502 392.876 233.625l-120.563 25.626c-60.064-86.566-159.187-144.064-272.313-144.064z" />
<glyph unicode="&#xe61b;" glyph-name="edit" data-tags="edit" d="M878.188 657.939l-158.566 158.496 52.877 52.813c29.19 29.126 76.435 29.126 105.626 0l52.749-52.813c29.255-29.184 29.255-76.435 0.128-105.562l-52.813-52.934zM157.561 249.747l-75.936-232.122 234.502 73.626-158.566 158.496zM654.559 745.19l-418.432-410.938 158.433-158.38 418.374 410.937-158.374 158.381z" />
<glyph unicode="&#xe61c;" glyph-name="authorize" data-tags="authorize" d="M864.941 900.547l-45.254-45.254-135.766 45.254-226.273-226.273v-90.508l248.902 248.902 67.883-22.629-588.312-588.313 135.762-135.766 678.824 678.824zM73.738-27.93l202.891 68.637-135.766 135.766z" />
<glyph unicode="&#xe61d;" glyph-name="map-pin" data-tags="map-pin" d="M511.968 960c-153.126 0-255.968-57.747-255.968-208v-544l255.968-272 256.032 272v543.814c0 0.122 0 0.122 0 0.186 0 150.253-102.842 208-256.032 208zM512 499.123c-77.779 0-140.781 63.066-140.781 140.877 0 77.747 63.002 140.813 140.781 140.813s140.781-63.066 140.781-140.813c0-77.811-63.002-140.877-140.781-140.877z" />
<glyph unicode="&#xe61e;" glyph-name="blank-map-pin" data-tags="blank-map-pin" d="M511.968 960c-153.126 0-255.968-57.747-255.968-208v-544l255.968-272 256.032 272v543.814c0 0.122 0 0.122 0 0.186 0 150.253-102.842 208-256.032 208z" />
<glyph unicode="&#xe61f;" glyph-name="table" data-tags="table" d="M64 896v-832h960v832h-960zM512 640.016h191.988v-128.027h-191.988v128.027zM512 447.988h191.988v-128h-191.988v128zM448 128h-320v127.988h320v-127.988zM448 319.988h-320v128h320v-128zM448 511.988h-320l0.004 128.027h319.996v-128.027zM512 128v127.988h191.988v-127.988h-191.988zM960 128h-192.012v127.988h192.012v-127.988zM960 319.988h-192.012v128h192.012v-128zM960 511.988h-192.012v128.027h192.012v-128.027z" />
<glyph unicode="&#xe620;" glyph-name="plus" data-tags="plus" d="M960 384h-384v-384h-128v384h-384v128h384v384h128v-384h384v-128z" />
<glyph unicode="&#xe621;" glyph-name="minus" data-tags="minus" d="M960 384h-896v128h896v-128z" />
<glyph unicode="&#xe622;" glyph-name="beginning" data-tags="beginning" d="M832 768v-640l-448 319.936 448 320.064zM256 768h-128v-640h128v640z" />
<glyph unicode="&#xe623;" glyph-name="reverse" data-tags="reverse" d="M576 768v-640l-448 319.936 448 320.064zM832 768h-128v-640h128v640z" />
<glyph unicode="&#xe624;" glyph-name="pause" data-tags="pause" d="M832 832v-768h-192v768h192zM192 64h192v768h-192v-768z" />
<glyph unicode="&#xe625;" glyph-name="play" data-tags="play" d="M192 960l704-512.064-704-511.936v1024z" />
<glyph unicode="&#xe626;" glyph-name="forward" data-tags="forward" d="M896 447.936l-448-319.936v640l448-320.064zM192 128h128v640h-128v-640z" />
<glyph unicode="&#xe627;" glyph-name="end" data-tags="end" d="M640 447.936l-448-319.936v640l448-320.064zM768 128h128v640h-128v-640z" />
<glyph unicode="&#xe628;" glyph-name="erase" data-tags="erase" d="M502.373 883.75l414.003-372.25-403.443-166.061c-3.936-1.44-7.872-2.317-11.493-2.317-8.128 0-15.438 3.066-21.006 8.749l-415.437 429.818 392.442 112.122c4.371 1.562 8.998 2.189 13.626 2.189 11.373 0 22.624-4.25 31.309-12.25zM995.436 200.314l-431.251-177.504c-5.498-2.246-11.373-3.437-17.248-3.437-12 0-23.75 4.813-32.499 13.818l-447.629 462.81c-4.371 4.499-7.744 9.811-9.875 15.814-19.123 51.622-58.995 144.749-56.869 205.248l424.748-439.123c20.064-20.749 48.186-32.813 76.934-32.813 13.818 0 27.501 2.81 40.691 8.186l434.752 179.315c29.312-76.813 78.496-207.814 18.246-232.314z" />
<glyph unicode="&#xe629;" glyph-name="up-down-arrows" data-tags="up-down-arrows" d="M320 338.874l128 128v-146.874l-192-192-192 192v146.874l128-128v429.126h128v-429.126zM768 768l-192-237.126v-146.874l128 173.126v-429.126h128v429.126l128-173.126v146.874l-192 237.126z" />
<glyph unicode="&#xe62a;" glyph-name="left" data-tags="left" d="M800 64h-160l-384 384 384 384h160l-384-384 384-384z" />
<glyph unicode="&#xe62b;" glyph-name="right" data-tags="right" d="M224 832h160l384-384-384-384h-160l384 384-384 384z" />
<glyph unicode="&#xe62c;" glyph-name="announcement" data-tags="announcement" d="M927.984 840.641c-19.812 11.426-44.188 11.363-64-0.070-484.688-279.84-239.516-138.285-443.453-256.035-9.766-5.633-20.688-8.535-31.961-8.535-118.086 0-195.398 0-245.195 0-57.203 0-77.891 0-78.828 0-0.203 0-0.344 0-0.547 0-35.344 0-64-28.648-64-63.992v-128.016c0-35.348 28.656-63.992 64-63.992v-128c0-35.348 28.656-64 64-64h192c35.344 0 64 28.652 64 64v128c1.625 0 2.93 0 4.57 0 11.203 0 22.258-2.934 31.953-8.535 204.312-117.957-32.727 18.898 443.461-256.031 19.797-11.43 44.18-11.434 63.984-0.016 19.797 11.418 32.031 32.527 32.031 55.379 0 291.559 0 382.848 0 674.406 0 22.871-12.203 44.012-32.016 55.437zM320 192h-192v128c8.102 0 16.234 0 23.406 0 77.242 0 102.023 0 100.695 0 19.055 0 42.023 0 67.898 0v-128z" />
<glyph unicode="&#xe62d;" glyph-name="notice-round" data-tags="notice-round" d="M448 665.6c0 21.208 17.192 38.4 38.4 38.4h51.2c21.208 0 38.4-17.192 38.4-38.4v-243.2c0-21.208-17.192-38.4-38.4-38.4h-51.2c-21.208 0-38.4 17.192-38.4 38.4v243.2zM576 281.626c0 21.184-17.191 38.374-38.375 38.374h-51.251c-21.184 0-38.374-17.19-38.374-38.374v-51.251c0-21.184 17.19-38.374 38.374-38.374h51.251c21.184 0 38.375 17.19 38.375 38.374v51.251zM1011.187 448c0-275.686-223.437-499.187-499.187-499.187-275.687 0-499.188 223.501-499.188 499.187s223.501 499.187 499.188 499.187c275.75 0 499.187-223.501 499.187-499.187zM934.374 448c0 232.934-189.44 422.438-422.374 422.438-232.935 0-422.375-189.504-422.375-422.438s189.44-422.374 422.375-422.374c232.934 0 422.374 189.44 422.374 422.374z" />
<glyph unicode="&#xe62e;" glyph-name="notice-triangle" data-tags="notice-triangle" d="M920.434 0c22.189 0 42.752 11.501 54.438 30.374 11.687 18.816 12.749 42.374 2.816 62.253l-408.378 816.87c-10.874 21.69-32.998 35.379-57.247 35.379-24.25 0-46.375-13.69-57.255-35.379l-408.499-816.87c-9.933-19.814-8.87-43.379 2.816-62.253 11.622-18.874 32.25-30.374 54.438-30.374h816.87zM103.564 64l408.5 816.877 408.37-816.877h-816.87zM448 601.6c0 21.208 17.192 38.4 38.4 38.4h51.2c21.208 0 38.4-17.192 38.4-38.4v-243.2c0-21.208-17.192-38.4-38.4-38.4h-51.2c-21.208 0-38.4 17.192-38.4 38.4v243.2zM576 166.374c0-21.184-17.191-38.374-38.375-38.374h-51.251c-21.184 0-38.374 17.19-38.374 38.374v51.251c0 21.184 17.19 38.374 38.374 38.374h51.251c21.184 0 38.375-17.19 38.375-38.374v-51.251z" />
<glyph unicode="&#xe62f;" glyph-name="home" data-tags="home" d="M960 449.376v-513.376h-320v384h-256v-384h-320v512h-64l192 192v320h192v-128l128 128 512-510.624h-64z" />
<glyph unicode="&#xe630;" glyph-name="locate" data-tags="locate" d="M513.496 945.689c-275.686 0-499.187-223.469-499.187-499.187s223.501-499.187 499.187-499.187c275.752 0 499.187 223.469 499.187 499.187s-223.435 499.187-499.187 499.187zM576 29.465v161.037h-126.504v-161.037c-181.626 27.815-325.248 171.411-352.998 353.037l159.502 1.498v126.502h-159.502c27.75 181.626 171.373 325.216 352.998 353.030v-159.532h126.504v159.532c181.624-27.814 326.687-171.405 354.501-353.030h-161.005l-1.496-126.502h162.501c-27.814-181.626-172.877-326.72-354.501-354.535z" />
<glyph unicode="&#xe631;" glyph-name="expand" data-tags="expand" d="M993.496 64h-160l-384 384 384 384h160l-384-384 384-384zM161.496 448l384 384h-160l-384-384 384-384h160l-384 384z" />
<glyph unicode="&#xe632;" glyph-name="collapse" data-tags="collapse" d="M33.498 832h160l384-384-384-384h-160l384 384-384 384zM865.498 448l-384-384h160l384 384-384 384h-160l384-384z" />
<glyph unicode="&#xe633;" glyph-name="layer-list" data-tags="layer-list" d="M127.936 704h-127.936v128h127.936v-128zM127.936 512h-127.936v-128h127.936v128zM127.936 192h-127.936v-128h127.936v128zM1023.936 192h-768v-128h768v128zM1023.936 512h-768v-128h768v128zM1023.936 832h-768v-128h768v128z" />
<glyph unicode="&#xe634;" glyph-name="basemap" data-tags="basemap" d="M0 960v-448h447.686v448h-447.686zM383.686 578.56v-2.56h-154.56c15.059 28.127 33.376 64.876 53.626 89.344 25.248-35.534 53.626-65.69 100.934-86.784zM190.438 885.248c3.814-7.47 7.501-15.188 9.939-24.122 11.558-41.843 27.437-98.502 55.622-152.064-31.315-35.219-59.187-81.875-79.872-133.062h-112.442v184.812c79.686 27.59 110.253 89.28 126.752 124.436zM1023.686 960h-447.686v-448h447.686v448zM840.314 576c0.314 8 1.184 17.938 2.688 25.746 0.934 24.346 9.875 61.344 24.064 67.469 7.744 3.379 14.746 5.222 20.621 6.848 13.19 3.558 28.064 7.654 36.378 22.842 8.499 15.565 4.563 34.029-1.69 53.875 2.816 4.532 14.253 9.094 37.312 11.034v-187.814h-119.373zM959.686 812.716c-27.123-1.626-58.688-7.84-75.936-30.842-9.626-12.877-12.064-29.094-6.874-45.722 1.747-5.529 2.688-9.402 3.187-12.026-1.69-0.506-3.565-1.005-5.126-1.439-7.75-2.126-16.877-4.686-27.066-9.095-47.558-20.563-52.685-95.283-52.749-105.939-1.062-5.152-3.373-13.811-3.251-31.654h-65.434c3.059 15.872 3.123 20.812 2.56 26.56 1.875 18.188 8.064 108.908-49.875 139.001 5.062 1.779 9.69 3.123 12.25 3.501 86.566 4.064 107.13 79.75 114.253 118.31 3.251 17.562 21.498 27.162 40.378 32.628h113.683v-83.284zM1023.686 384h-447.686v-448h447.686v448zM700.998 107.75l54.189-107.75h-115.501v320h10.816l139.872-85.159-86.125-100.531c-6.374-7.373-7.622-17.875-3.251-26.56zM743.501 320h216.186v-131.623l-216.186 131.623zM0 384v-448h447.686v448h-447.686zM374.874 284.53c-0.122-0.403-11.936-36.749-54.061-43.75-39.187-6.528-58.81-32.531-66.189-59.155-48.064 15.437-92.685 7.565-123.501-23.066-36.499-36.435-44.058-96.435-18.246-145.997 1.434-2.752 3.059-8.096 4.25-12.562h-53.44v320h320.314v-4.065c-11.686-16.467-8.627-29.843-9.126-31.405z" />
<glyph unicode="&#xe635;" glyph-name="globe" data-tags="globe" d="M436.562 782.438c-26.374-1.408-22.752 27.75-24.186 36.966 0 0 9.933 7.098 15.622 9.222 5.69 2.158 24.186 2.158 27.75-9.222 3.501-11.373 7.123-35.532-19.187-36.966zM501.189 724.908c15.622 11.341 33.434-0.723 46.246 0 12.749 0.685 15.565 17.062 21.312 25.562 5.69 8.563 30.502 19.904 18.438 31.968-12.122 12.064-70.374 20.595-85.248 1.434-7.629-9.844-31.315-36.999-43.378-42.624-12.059-5.652-5.685-27.719 2.123-29.12 7.878-1.441 24.877 1.401 40.506 12.78zM572.312 654.502c-4.248-5.005 2.189-15.693 16.314-15.693 0-10.656 2.874-27.718 17.062-24.122 14.182 3.565 15.688 24.186-2.125 35.565-8.314 5.28-17.003 29.12-31.251 4.25zM1001.496 446.502c0-269.536-218.496-488-488-488-269.498 0-488 218.464-488 488 0 269.498 218.502 488 488 488 269.504 0 488-218.502 488-488zM513.496 36.562c41.939 0 82.374 6.374 120.506 18.125-1.005 3.123-2.189 6.406-4.192 10.029-11.309 20.596-16.37 62.534-4.998 73.19 11.315 10.688 16.314 38.374 7.814 45.498-8.498 7.066 5.747 19.22 7.123 26.97 7.872 29.19-7.813 30.56-31.936 37.722-24.192 7.059-48.314-2.88-79.565-3.597-31.373-0.685-44.122 44.096-47.686 51.846-11.314 7.123-26.938 17.843-24.813 33.434 2.125 15.686 16.315 29.126 16.998 32-2.81 9.254 0 26.254 4.314 31.968 7.066 27.002 41.875 44.755 53.312 49.786 4.25 18.47 40.499 36.218 48.998 32.621 8.499-3.526 16.378-17.030 29.875 0 13.44 17.095 22.003 12.096 42.624 12.096 20.563 0 26.938-9.971 33.377-29.126 6.373-19.186 51.186-21.997 51.877-17.778 9.184 30.528 34.81 7.122 39.808 7.122 29.875 2.094 33.376 14.906 29.875 32.691-3.558 17.747-33.432 8.531-36.998 16.307-2.746 6.131-9.248 19.911-12.813 12.813-3.501-7.091-15.557-22.029-23.437-2.093-7.814 19.879-29.811 42.599-35.501 39.066-8.563-12.128-19.251-12.064-24.186-8.531-19.872 14.938-34.752-0.749-43.373-9.254-8.499-8.531-21.376-22.592-39.878-27.622-18.438-4.934-30.559 7.846-32.685 26.31-2.125 18.502 14.31 33.971 30.688 25.504 16.371-8.531 30.496-1.44 23.437 5.658-7.066 7.123-12.063 27.027-2.816 30.528 9.19 3.566 15.629 0 31.251 21.344 15.63 21.312 33.376 14.222 54.003 10.656 20.621-3.565 14.939 30.56 13.498 36.966-1.439 6.407-26.31 20.595-28.435 15.661-2.067-4.973 3.558-27.718-8.499-33.44-12.128-5.715-24.192 13.562-34.131 24.909-9.997 11.341 9.254 21.998 11.379 27.718 5.69 20.595 29.184 37.658 51.187 26.246 21.997-11.405 26.246-2.842 24.877 0.755-11.443 13.498-11.066 37.843 0 49.715 6.874 7.405 13.37 12.128 19.437 15.002-65.69 44.781-145.005 71.059-230.317 71.059-86.31 0-166.31-26.938-232.435-72.685 21.248 9.498 68.998 13.498 70.253 3.686 1.37-11.405 1.37-41.216 11.31-35.533 8.498 4.282 18.501 28.442 41.247 11.347 22.689-17.030-4.307-38.342-11.373-49.722-7.123-11.437-9.997-29.843-34.125-21.312-24.186 8.531-28.435-2.842-29.875-11.373-1.434-8.531-16.998-15.628-36.934-9.971-19.942 5.69-52.499-25.497-68.192-41.184-8.563-8.531-75.872-29.536-66.059 14.938 0.562 2.56 1.189 4.499 1.752 6.874-25.939-44.716-43.565-94.688-51.066-148 19.002-5.754 58.624-16.563 65.626-47.187 8.499-12.781 25.498-52.595 42.624-73.907 27.437-34.342 8.627-50.97 11.373-78.189 14.189-7.091 35.501-22.72 56.813-34.157 21.312-11.341 37.005-41.184 4.314-52.563-7.123-5.683 1.376-32.717-12.813-38.374-11.75-4.685-27.807-24.122-42.688-30.97 73.377-68.966 171.814-111.59 280.25-111.59zM923.435 446.502c0 6.214-0.683 12.25-0.934 18.406-9.939 0.282-22.88 2.688-31.187 4.838-13.44 3.598-23.443-10.624-17.062-15.622 6.374-4.934 21.37-10.592 22.746-19.872 1.44-9.254-14.189-51.162-22.746-66.752-8.506-15.686-18.438-17.062-23.443-10.003-4.934 7.13-14.182 41.907-24.87 61.843-10.688 19.878-12.064 4.282-8.499-8.557 3.558-12.755 19.873-61.818 24.87-76.032 20.627-4.282 23.437-6.406 29.875-12.813 6.317-6.374-1.434-14.938-12.813-31.219-11.371-16.378-51.872-91.002-53.995-104.467-1-6.502 0.184-16.506-0.443-27.629 73.19 74.093 118.502 175.75 118.502 287.878z" />
<glyph unicode="&#xe636;" glyph-name="applications" data-tags="applications" d="M959.937 60.188l-259.703 259.812h195.766v64h-320v-320h64v195.625l259.688-259.688zM640 448h99.43l33.82 10.027c-7.875 30.824-38.367 67.812-38.367 67.812s35.414-22.469 55.57-16.59c19.906 5.809 4.977 29.859 21.563 47.277 2.734 2.867 10.469 4.094 16.188 4.031 9.094-30.57 14.063-62.926 14.063-96.453 0-5.434-0.437-10.762-0.781-16.105h89.578c0.148 2.301 0.391 4.582 0.391 6.926 0 235.676-191.055 426.727-426.734 426.727-235.672 0-426.719-191.051-426.719-426.727s191.047-426.727 426.719-426.727c2.461 0 4.859 0.238 7.281 0.363v57.43l-7.016 40.586c-0.086 0-0.172-0.008-0.266-0.008-68.469 0-131.984 20.652-185.188 55.703 0.906 28.316 14.484 54.316 49.242 105.391 27.336 40.176 0.508 80.664-21.055 94.766-21.57 14.098-43.609 38.152-104.984 52.25-17.617 4.051-60.984 12.047-75.516 28.215 0 0.406-0.031 0.805-0.031 1.211 0 26.176 3.078 51.613 8.719 76.078 17.328-2.926 35.906-1.988 47.234-0.246 32.344 4.977 31.734 38.145 42.516 68.004s53.352 33.066 71.602 67.898c12.258 23.414-8.727 50.773-20.469 68.66 53.719 36.078 118.367 57.145 187.93 57.145 38.203 0 74.867-6.437 109.109-18.125 2.656-15.973 4.328-38.352 0.375-53.645-4.391-16.969-36.266-25.23-45.266-40.023s-19.734-55.898 4.633-65.453c24.367-9.559 51.617 2.871 72.57-10.641 25.703-16.59 45.609-52.254 29.031-54.742-16.594-2.488-65.531 11.613-97.875 11.613s-111.969-58.059-106.992-108.652c1.602-16.336 4.305-28.84 8.141-38.418 2.117-7.93 21.664-25.961 33.555-27.293v51.734h128z" />
<glyph unicode="&#xe637;" glyph-name="arrow-up-circled" data-tags="arrow-up-circled" d="M513.498 945.689c-275.686 0-499.187-223.437-499.187-499.187 0-275.693 223.501-499.187 499.187-499.187 275.75 0 499.187 223.494 499.187 499.187 0 275.75-223.437 499.187-499.187 499.187zM513.498 24.128c-232.934 0-422.374 189.433-422.374 422.374 0 232.934 189.44 422.406 422.374 422.406 232.941 0 422.374-189.472 422.374-422.406 0-232.941-189.434-422.374-422.374-422.374zM767.686 286.502l-254.502 256-256-256v160l256 256 254.502-256v-160z" />
<glyph unicode="&#xe638;" glyph-name="arrow-down-circled" data-tags="arrow-down-circled" d="M513.498 945.689c-275.686 0-499.187-223.437-499.187-499.187 0-275.693 223.501-499.187 499.187-499.187 275.75 0 499.187 223.494 499.187 499.187 0 275.75-223.437 499.187-499.187 499.187zM513.498 24.128c-232.934 0-422.374 189.433-422.374 422.374 0 232.934 189.44 422.406 422.374 422.406 232.941 0 422.374-189.472 422.374-422.406 0-232.941-189.434-422.374-422.374-422.374zM257.498 606.502l256-256 256 256v-160l-256-256-256 256z" />
<glyph unicode="&#xe639;" glyph-name="arrow-left-circled" data-tags="arrow-left-circled" d="M513.496 945.689c-275.686 0-499.187-223.437-499.187-499.187 0-275.693 223.501-499.187 499.187-499.187 275.752 0 499.187 223.494 499.187 499.187 0 275.75-223.435 499.187-499.187 499.187zM513.496 24.128c-232.934 0-422.374 189.433-422.374 422.374 0 232.934 189.44 422.406 422.374 422.406 232.941 0 422.376-189.472 422.376-422.406 0-232.941-189.435-422.374-422.376-422.374zM673.496 192l-256 254.502 256 257.498h-160l-256-257.498 256-254.502z" />
<glyph unicode="&#xe63a;" glyph-name="arrow-right-circled" data-tags="arrow-right-circled" d="M513.498 945.689c-275.686 0-499.187-223.437-499.187-499.187 0-275.693 223.501-499.187 499.187-499.187 275.75 0 499.187 223.494 499.187 499.187 0 275.75-223.437 499.187-499.187 499.187zM513.498 24.128c-232.934 0-422.374 189.433-422.374 422.374 0 232.934 189.44 422.406 422.374 422.406 232.941 0 422.374-189.472 422.374-422.406 0-232.941-189.434-422.374-422.374-422.374zM353.498 190.502l256 256-256 256h160l256-256-256-256z" />
<glyph unicode="&#xe63b;" glyph-name="minus-circled" data-tags="minus-circled" d="M513.496 945.688c-275.684 0-499.188-223.434-499.188-499.188 0-275.691 223.504-499.184 499.188-499.184 275.75 0 499.188 223.492 499.188 499.184 0 275.754-223.438 499.188-499.188 499.188zM513.496 24.129c-232.934 0-422.371 189.434-422.371 422.371s189.437 422.41 422.371 422.41c232.941 0 422.375-189.473 422.375-422.41s-189.434-422.371-422.375-422.371zM192 512h640v-128h-640v128z" />
<glyph unicode="&#xe63c;" glyph-name="plus-circled" data-tags="plus-circled" d="M513.496 945.688c-275.688 0-499.188-223.434-499.188-499.188 0-275.691 223.5-499.184 499.188-499.184 275.75 0 499.188 223.492 499.188 499.184 0 275.754-223.438 499.188-499.188 499.188zM513.496 24.129c-232.934 0-422.371 189.434-422.371 422.371s189.437 422.41 422.371 422.41c232.941 0 422.375-189.473 422.375-422.41s-189.434-422.371-422.375-422.371zM576 512v256h-128v-256h-256v-128h256v-256h128v256h256v128z" />
<glyph unicode="&#xe63d;" glyph-name="add-attachment" data-tags="add-attachment" d="M64 896v-896h896v896h-896zM832 128h-640v640h640v-640zM448 192h128v192h192v128h-192v192h-128v-192h-192v-128h192z" />
<glyph unicode="&#xe63e;" glyph-name="attachment" data-tags="attachment" d="M340.685 292.685l386.253 386.066-42.688 42.689-386.125-385.939c-43.75-43.686-43.75-114.625 0-158.004 43.501-43.75 114.374-43.75 157.939 0l0.064-0.057 473.561 473.434c70.746 70.751 70.746 185.439 0 256.128-70.624 70.623-185.19 70.623-255.942 0l-558.995-559.002c-94.253-94.31-94.067-247.123 0.057-341.248 94.253-94.316 247.066-94.316 341.255-0.063l471.501 471.436-42.688 42.689-471.501-471.501c-70.567-70.624-185.312-70.624-255.879 0.128-70.688 70.624-70.688 185.12-0.057 255.807l558.937 559.066c47.187 47.059 123.623 47.059 170.688 0 47.123-47.186 47.123-123.564 0-170.623l-473.504-473.754c-9.376-9.498-22.31-15.373-36.685-15.373-28.499 0-51.565 23.059-51.565 51.502 0 14.374 5.939 27.308 15.373 36.621v0z" />
<glyph unicode="&#xe63f;" glyph-name="calendar" data-tags="calendar" d="M64-64h832v640h-832v-640zM704 512h128v-128h-128v128zM704 320h128v-128h-128v128zM704 128h128v-128h-128v128zM512 512h128v-128h-128v128zM512 320h128v-128h-128v128zM512 128h128v-128h-128v128zM320 512h128v-128h-128v128zM320 320h128v-128h-128v128zM320 128h128v-128h-128v128zM128 512h128v-128h-128v128zM128 320h128v-128h-128v128zM128 128h128v-128h-128v128zM896 896v-256h-832v256h128v-128h192v128h192v-128h192v128h128zM320 832h-64v128h64v-128zM704 832h-64v128h64v-128z" />
<glyph unicode="&#xe640;" glyph-name="close-circled" data-tags="close-circled" d="M691.123 704h76.877v-76.877l-179.219-179.187 179.219-179.188v-76.748h-76.877l-179.155 179.187-179.219-179.187h-76.749v76.748l179.155 179.188-179.155 179.187v76.877h76.749l179.219-179.188 179.155 179.188zM1011.187 448c0-275.687-223.469-499.188-499.187-499.188s-499.187 223.501-499.187 499.188c0 275.686 223.469 499.187 499.187 499.187s499.187-223.501 499.187-499.187zM934.406 448c0 232.934-189.498 422.374-422.406 422.374s-422.407-189.44-422.407-422.374c0-232.935 189.498-422.375 422.407-422.375s422.406 189.44 422.406 422.375z" />
<glyph unicode="&#xe641;" glyph-name="browser" data-tags="browser" d="M0 832v-768h1024v768h-1024zM256 128h-192v448h192v-448zM960 128h-640v448h640v-448z" />
<glyph unicode="&#xe642;" glyph-name="collection" data-tags="collection" d="M1024 640v-704h-704v64h640v640h64zM832 768v-640h-640v-64h704v704h-64zM768 896v-704h-704v704h704zM704 632.402v199.598h-173.44c22.125-64 9.568-70.842 5.005-76.154-4.442-5.19-11.251-8.755-18.317-10.221-8.749-7.622-26.438-31.347-31.245-48.064-4.506-15.533-14.502-27.533-28.314-33.875-24.691-11.373-52.378-0.371-58.938 2.624-3.002-9.344-7.75-19.437-15.251-29.933-16.563-22.97-36.877-28.128-51.002-28.41-37.376-0.346-71.437 33.562-83.814 48.097 7.379-19.847 12.755-45.44 5.19-63.438-1.875-4.41-4.435-8.346-7.622-11.661 32.813 2.656 59.936-12.531 72.499-33.715 14.624-24.69 12.934-62.002-23.878-89.626-9.626-7.219-14.189-13.376-15.936-18.438 37.69-5.842 65.811-26.97 74.374-57.376 9.248-32.813-6.624-66.906-40.563-86.874-1.062-0.627-10.746-6.937-21.875-38.937h268c-0.064 32-0.122 36.032-0.371 36.313-3.501 4.845-13.568 7.719-27.565 7.968-52.186 0.967-76.25 33.216-81.44 63.034-6.874 40.122 15.251 83.968 50.438 103.405-17.376 22.497-6.496 39.341-0.314 46.125 2.189 2.406 5.818 5.812 10.253 9.908 25.376 23.276 31.002 33.433 31.187 37.778-1.19 22.534 7.814 42.094 24.749 53.472 11.123 7.558 34.816 17.184 72.499 2.496 0.813 1.312 1.562 2.688 2.317 3.846 2.874 5.063 33.683 8.749 63.373 12.058z" />
<glyph unicode="&#xe643;" glyph-name="comment" data-tags="comment" d="M511.984 896c-287.078 0-511.984-142.863-511.984-325.27 0-114.641 89.719-217.563 237.367-275.895-2.191-26.809-10.375-69.715-34.859-132.563l-62.509-160.645 156.102 73.215c5.93 2.762 132.93 63.25 209.918 170.684 1.988 0 3.977 0 5.961 0 287.113 0 512.020 142.863 512.020 325.203 0 182.402-224.906 325.27-512.016 325.27zM512 314.496c-14.559 0-28.922 0.465-43.121 1.262-60.93-112.266-202.086-178.473-202.086-178.473 46.355 119.117 42.574 181.66 37.035 207.305-139.703 43.113-239.828 133.422-239.828 231.41 0 141.535 203.324 256.004 448 256 244.676 0 448-119.707 448-261.242 0-141.531-203.324-256.262-448-256.262zM256 704h512v-64h-512v64zM256 576h384v-64h-384v64z" />
<glyph unicode="&#xe644;" glyph-name="configure-popup" data-tags="configure-popup" d="M192 832h320v-64h-320v64zM448 704h320v-64h-320v64zM192 448h192v256h-192v-256zM256 640h64v-128h-64v128zM320 235.551l-84-67.172 18.059 72.121c4.75 19.125 0.5 39.25-11.559 54.754-12.246 15.621-30.813 24.746-50.5 24.746h-64.063c-35.187 0-63.937 28.75-63.937 64v448c0 35.125 28.75 64 63.937 64h704c35.25 0 64.063-28.875 64.063-64v-259.914c3.012 0.469 5.957 1.477 8.996 1.477 15.188 0 30.32-5.875 41.758-17.312l13.246-13.246v288.996c0 70.625-57.312 128-128 128h-704c-70.688 0-128-57.375-128-128v-448c0-70.75 57.312-128 128-128h64l-64-256 213.605 170.883c-12.918 10.91-21.605 26.527-21.605 44.492v20.176zM1024 213.191v80.621l-102.688 13.441c-5.313 21.559-13.875 41.625-24.934 60.121l66.621 85.559-57.063 57.063-85.754-66.43c-18.309 10.996-38.559 19.437-60 24.75l-13.375 107.684h-80.621l-13.563-107.684c-21.437-5.312-41.504-13.754-60.125-24.75l-85.434 66.43-57.063-57.063 66.43-85.434c-10.992-18.621-19.437-38.688-24.746-60.246l-107.688-13.441v-80.621l107.688-13.504c5.309-21.312 13.754-41.563 24.746-60l-66.43-85.625 56.934-56.934 85.563 66.621c18.621-11.312 38.688-19.75 60.125-24.937l13.434-102.813h80.75l13.375 102.812c21.441 5.187 41.691 13.625 60.129 24.937l85.5-66.621 57.188 56.934-66.621 85.625c11.184 18.437 19.621 38.688 24.934 60l102.687 13.504zM881.063 211.566c-4.379-17.441-11.25-34.004-20.563-49.504-8.629-14.312-7.437-32.5 2.75-45.812l45.129-57.812-6.754-6.812-57.875 45.004c-7.371 5.809-16.188 8.684-25.063 8.684-7.188 0-14.437-1.937-20.75-5.875-15.437-9.246-32.191-16.184-49.688-20.563-16.25-4-28.312-17.746-30.375-34.375l-9.125-72.812h-9.629l-8.996 72.812c-2.063 16.629-14.125 30.254-30.375 34.375-17.746 4.379-34.375 11.316-49.691 20.563-6.371 3.937-13.559 5.875-20.867 5.875-8.879 0-17.691-2.875-25.063-8.684l-57.875-45.004-6.633 6.75 45.004 57.754c10.312 13.434 11.437 31.621 2.812 45.934-9.25 15.5-16.188 32.063-20.5 49.504-4.063 16.305-17.691 28.371-34.437 30.496l-72.812 9.063 0.063 9.754 72.75 8.996c16.746 2.063 30.375 14.191 34.437 30.563 4.312 17.312 11.25 33.937 20.5 49.375 8.625 14.437 7.5 32.625-2.812 45.812l-45.125 58 6.754 6.754 58.059-45.125c7.309-5.691 16.121-8.566 24.879-8.566 7.309 0 14.559 1.941 21.063 5.875 15.121 9.25 31.75 16.066 49.496 20.566 16.25 4.121 28.312 17.625 30.375 34.371l8.996 72.688h9.629l9.125-72.688c2.063-16.746 14.059-30.25 30.309-34.371 17.691-4.5 34.441-11.316 49.504-20.566 6.563-3.934 13.812-5.875 21-5.875 8.812 0 17.691 2.875 25 8.566l57.937 45.125 6.754-6.754-45.129-58c-10.188-13.188-11.379-31.375-2.75-45.684 9.375-15.688 16.184-32.316 20.563-49.504 4.063-16.371 17.691-28.5 34.309-30.563l72.941-8.996-0.063-9.754-72.879-9.063c-16.617-2.125-30.246-14.191-34.309-30.496zM703.937 377.875c-67.188 0-121.812-54.75-121.812-121.875 0-67.121 54.625-121.875 121.812-121.875 67.184 0 121.809 54.754 121.809 121.875 0 67.125-54.625 121.875-121.809 121.875zM703.937 174.754c-44.816 0-81.188 36.371-81.188 81.246 0 44.879 36.371 81.25 81.188 81.25 44.875 0 81.254-36.371 81.254-81.25 0-44.875-36.379-81.246-81.254-81.246z" />
<glyph unicode="&#xe645;" glyph-name="contact" data-tags="contact" d="M0 832v-768h1024v768h-1024zM960 768v-16.605l-449.625-300.641-446.375 298.664v18.582h896zM64 128v555.227l385.246-255.727c20.358-14.461 39.145-27.847 61.129-43.5 22.074 15.718 40.767 29.039 61.125 43.5v-0.031l388.5 258.039v-557.508h-896z" />
<glyph unicode="&#xe646;" glyph-name="dashboard" data-tags="dashboard" d="M183.324 164.574v0zM863.446 174.162h0.109v-64.223h-0.109v64.223zM950.672 713.41c12.437 12.445 12.437 32.809 0 45.254-12.453 12.445-32.812 12.449-45.266 0.004l-328.762-328.77c-19.035 11.223-40.949 18.102-64.645 18.102-70.691 0-128-57.309-128-128s57.309-128 128-128 128 57.309 128 128c0 23.695-6.879 45.609-18.102 64.645l328.773 328.766zM1010.539 448c0 44.063-6.281 86.555-17.008 127.246l-53.688-53.676c4.109-23.969 6.719-48.449 6.719-73.57 0-108.152-39.992-206.961-105.617-283.086l45.219-45.602c77.195 87.801 124.375 202.602 124.375 328.688zM840.945 164.914l-89.469 90.219c-12.453 12.555-32.867 12.594-45.363 0.082l-0.191-0.191c-12.379-12.391-12.418-32.707-0.082-45.148l134.879-136.008c16.070 14.133 31.195 29.258 45.336 45.328l-45.383 45.379c0.047 0.055 0.094 0.117 0.141 0.176s0.086 0.109 0.133 0.164zM249.316 793.344c73.059 55.703 163.926 89.188 262.684 89.188v-146.531c0-17.602 14.398-32 32-32s32 14.398 32 32v141.359c70.055-10.516 134.727-37.555 189.781-77.355l45.805 45.801c-68.105 51.375-149.965 84.672-238.816 95.668-17.957 2.223-35.961 4.305-54.473 4.543-2.141 0.027-4.148 0.523-6.297 0.523-116.492 0-223.398-40.273-308.27-107.227-16.879-13.316-32.961-27.543-47.977-42.895-74.734-76.402-124.91-176.695-138.34-288.398-2.117-17.609-3.398-35.457-3.629-53.586-0.027-2.164-0.324-4.262-0.324-6.434 0-126.141 47.223-241 124.473-328.809l45.387 45.387c-65.789 76.172-105.883 175.113-105.883 283.422h146.563c17.602 0 32 14.398 32 32s-14.398 32-32 32h-141.309c13.703 92.168 56.105 174.996 118.273 238.828l86.539-87.266c12.453-12.559 32.863-12.594 45.359-0.086l0.191 0.191c12.383 12.395 12.418 32.711 0.082 45.148l-83.82 84.527zM137.945 119.195c14.117-16.043 29.211-31.141 45.254-45.254l135.152 135.156c12.445 12.445 12.445 32.809 0 45.254s-32.809 12.445-45.254 0l-135.152-135.156z" />
<glyph unicode="&#xe647;" glyph-name="deny" data-tags="deny" d="M513.498 945.689c-275.75 0-499.187-223.469-499.187-499.187s223.437-499.187 499.187-499.187 499.187 223.469 499.187 499.187-223.437 499.187-499.187 499.187zM513.498 868.908c98.003 0 188.128-33.875 259.878-90.125l-592.186-592.159c-56.256 71.75-90.067 161.842-90.067 259.878 0 232.902 189.44 422.406 422.374 422.406zM513.498 24.095c-97.997 0-188.122 33.875-259.872 90.125l592.186 592.154c56.192-71.75 90.061-161.843 90.061-259.872 0-232.909-189.434-422.406-422.374-422.406z" />
<glyph unicode="&#xe648;" glyph-name="description" data-tags="description" d="M1001.498 446.502c0-269.69-218.432-488-488-488-269.562 0-488 218.31-488 488 0 269.562 218.438 488 488 488 269.568 0 488-218.438 488-488zM576 192v384h-128v-384h-64v-64h256v64h-64zM576 768h-128v-128h128v128z" />
<glyph unicode="&#xe649;" glyph-name="directions" data-tags="directions" d="M896 576l-256 256v-192h-256c-105.602 0-192-86.398-192-192v-384h128v384c0 34.688 29.312 64 64 64h256v-192l256 256z" />
<glyph unicode="&#xe64a;" glyph-name="directions2" data-tags="directions2" d="M704 832h-384c-105.996 0-192-85.937-192-192v-384c0-106.063 86.004-192 192-192h384c106.004 0 192 85.937 192 192v384c0 106.063-85.996 192-192 192zM576 320v128h-128v-256h-128v192c0 106.063 85.937 192 192 192h64v128l224-192-224-192z" />
<glyph unicode="&#xe64b;" glyph-name="documentation" data-tags="documentation" d="M704 192h128v-64h-128v64zM704 576h128v-64h-128v64zM704 448h128v-64h-128v64zM256 768h320v-64h-320v64zM704 320h128v-64h-128v64zM256 576h320v-64h-320v64zM256 448h384v-64h-384v64zM729.625 960h-601.625v-1024h832v793.625l-230.375 230.375zM896 0h-704v896h448c0-79.055 0-47.922 0-256 100.285 0 169.555 0 256 0v-640zM896 704h-192v192h19.875l172.125-172.129v-19.871zM256 320h384v-64h-384v64zM256 192h320v-64h-320v64z" />
<glyph unicode="&#xe64c;" glyph-name="duplicate" data-tags="duplicate" d="M729.625 960h-409.625v-192h-256v-832h640v192h256v601.625l-230.375 230.375zM640 192v-192h-512v704h256v-256h256v-256zM640 512h-192v192h19.871l172.129-172.188v-19.812zM896 192h-192v345.625l-230.375 230.375h-89.625v128h256v-256h256v-448zM896 704h-192v192h19.871l172.129-172.188v-19.812zM192 128h384v-64h-384v64zM192 256h384v-64h-384v64zM192 384h384v-64h-384v64zM192 512h128v-64h-128v64z" />
<glyph unicode="&#xe64d;" glyph-name="review" data-tags="review" d="M896 256h-233c-10.317 7.34-21.254 13.625-33.19 17.439 6.438 15.219 11.379 30.842 15.686 46.561h250.504v-64zM896 448h-239.189c1.813-21.312 2.189-42.657 0.25-64h238.939v64zM896 576h-273.563c9.811-20.685 17.376-42.093 23.187-64h250.376v64zM1024 729.625v-601.625h-229.749l-63.942 64h229.691v448h-256v256h-256v-146.593c-20.686 9.658-41.877 18.061-64 23.969v186.624h409.624l230.376-230.375zM960 723.814l-172.13 172.186h-19.87v-192h192v19.814zM756.498-6.842l-45.747-45.754c-12.691-12.717-33.19-12.717-45.875 0l-141.126 141.030c-12.378 12.442-12.378 32.224-0.627 44.909l-61.682 61.747 0.747 0.781-0.064 0.097c-110.688-87.687-271.251-81.594-373.498 20.595-110.066 110.125-110.125 288.627 0 398.752s288.621 110.029 398.746 0c102.688-102.688 108.25-264.064 19.501-374.784l0.314 0.346 61.626-61.594 0.813 0.87c12.627 12.627 33.128 12.627 45.875 0l140.998-141.12c12.749-12.627 12.691-33.158 0-45.875zM429.248 557.126c-77.998 78.029-204.501 78.029-282.44 0.090-77.997-77.997-77.997-204.467 0-282.463 77.939-78.004 204.442-78.004 282.44 0 78.002 77.996 77.938 204.467 0 282.374z" />
<glyph unicode="&#xe64e;" glyph-name="environment-settings" data-tags="environment-settings" d="M513.498 232.128c-118.182 0-214.374 96.185-214.374 214.374 0 118.182 96.192 214.374 214.374 214.374 118.189 0 214.374-96.192 214.374-214.374 0-118.189-96.186-214.374-214.374-214.374zM513.498 776.128c35.002 0 68.064-7.002 99.75-17.127l-99.75 199.501-99.75-199.501c31.693 10.125 64.755 17.127 99.75 17.127zM804.998 596.998l70.566 211.565-211.565-70.56c60.499-31.379 109.626-80.506 140.998-141.005zM363.002 738.003l-211.501 70.56 70.502-211.565c31.373 60.499 80.499 109.626 140.998 141.005zM1025.498 446.502l-199.494 99.75c10.125-31.692 17.12-64.755 17.12-99.75 0-35.002-6.995-68.064-17.12-99.75l199.494 99.75zM183.872 446.502c0 34.995 7.002 68.058 17.126 99.75l-199.501-99.75 199.501-99.75c-10.125 31.686-17.126 64.748-17.126 99.75zM664 155.001l211.565-70.566-70.566 211.565c-31.373-60.5-80.499-109.626-140.998-140.999zM222.003 296l-70.502-211.565 211.501 70.566c-60.499 31.373-109.626 80.499-140.998 140.999zM513.498 116.876c-34.995 0-68.058 6.995-99.75 17.126l99.75-199.501 99.75 199.501c-31.686-10.131-64.749-17.126-99.75-17.126z" />
<glyph unicode="&#xe64f;" glyph-name="error" data-tags="error" d="M691.373 704l77.005-76.878-179.251-179.155 179.251-179.219-77.005-76.748-179.123 179.154-179.251-179.154-76.621 76.748 179.123 179.219-179.123 179.155 76.621 76.878 179.251-179.22 179.123 179.22zM1024 620.812v-345.626l-275.002-339.186h-473.626l-275.373 339.186v345.626l275.373 339.188h473.626l275.002-339.188zM947.187 282.092v331.814l-218.31 269.28h-433.376l-218.688-269.344v-331.686l218.688-269.344h433.376l218.31 269.28z" />
<glyph unicode="&#xe650;" glyph-name="error2" data-tags="error2" d="M697.498 896h-371.123l-262.374-262.439v-371.123l262.374-262.438h371.123l262.502 262.438v371.123l-262.502 262.439zM576 128h-128v128h128v-128zM576 384h-128v320h128v-320z" />
<glyph unicode="&#xe651;" glyph-name="experimental" data-tags="experimental" d="M967.203 47.328c-145.703 252.359-205.281 355.57-327.203 566.734v281.937h32c17.602 0 32 14.398 32 32s-14.398 32-32 32h-320c-17.602 0-32-14.398-32-32s14.398-32 32-32h32v-281.949c-121.922-211.176-181.516-314.387-327.234-566.789-13.25-22.949-13.203-51.242 0.063-74.188 13.266-22.941 37.75-37.074 64.25-37.074 338.016 0 443.875 0 781.922 0 26.5 0 50.984 14.191 64.219 37.148 13.242 22.957 13.234 51.23-0.016 74.18zM251.172 256l196.828 340.937v299.063h128v-64h-64v-64h64v-128h-64v-64h76.086l73.891-128h-149.977v-64h186.922l73.891-128h-521.641z" />
<glyph unicode="&#xe652;" glyph-name="feature-layer" data-tags="feature-layer" d="M1025.496 34.655c0 0-204.813 102.342-512.058 0-307.13-102.406-512 0-512 0l136.563 819.155c0 0 204.806-68.282 375.437 0 170.688 68.25 375.494 0 375.494 0l136.563-819.155z" />
<glyph unicode="&#xe653;" glyph-name="filter" data-tags="filter" d="M128 960h768v-64h-768v64zM448 0h128l64 512h-256zM384 576h256l256 256h-768z" />
<glyph unicode="&#xe654;" glyph-name="grant" data-tags="grant" d="M1001.496 446.502c0-269.568-218.432-488-488-488-269.562 0-488 218.432-488 488 0 269.562 218.438 488 488 488 269.568 0 488-218.438 488-488zM752.128 696.128l-331.003-331.002-133.376 133.626-74.373-74.375 207.749-207.75 405.376 405.12-74.373 74.381z" />
<glyph unicode="&#xe655;" glyph-name="group" data-tags="group" d="M512 832c0-70.692-57.308-128-128-128s-128 57.308-128 128c0 70.692 57.308 128 128 128s128-57.308 128-128zM448 576c0 49.375 19.219 93.937 49.937 128h-241.937c-70.688 0-128-57.375-128-128v-256c0-35.375 28.629-64 64-64h64c0-35.375 28.629-64 64-64v128c0 88.5 60.5 162.437 142.094 184.629-8.91 22.059-14.094 46.125-14.094 71.371zM768 576c0-70.692-57.308-128-128-128s-128 57.308-128 128c0 70.692 57.308 128 128 128s128-57.308 128-128zM768 448h-256c-70.688 0-128-57.375-128-128v-256c0-35.375 28.629-64 64-64h64c0-35.375 28.629-64 64-64h128c35.375 0 64 28.625 64 64h64c35.375 0 64 28.625 64 64v256c0 70.625-57.312 128-128 128z" />
<glyph unicode="&#xe656;" glyph-name="key" data-tags="key" d="M736 964.312c-159.066 0-288-128.996-288-288 0-46.43 12.012-89.656 31.512-128.488l-415.512-415.512v-128h128l64 64h127l0.664 127.664 0.336 0.336h128v128l95.512 95.512c38.836-19.504 82.063-31.512 128.488-31.512 159.066 0 288 128.879 288 288 0 159.004-128.934 288-288 288zM832 640h-128v128h128v-128z" />
<glyph unicode="&#xe657;" glyph-name="labels" data-tags="labels" d="M963.055 534.047l-365.008 365.008c-6.496 6.496-14.992 9.746-23.5 9.746-8.434 0-16.934-3.25-23.437-9.746l-541.363-541.43c-6.246-6.25-9.746-14.625-9.746-23.371v-219.578c0-8.75 3.5-17.246 9.746-23.5l145.492-145.43c6.246-6.246 14.688-9.746 23.504-9.746h219.512c8.812 0 17.184 3.5 23.437 9.746l541.363 541.309c12.992 12.996 12.992 33.996 0 46.992zM385.437 0h-206.75l-114.688 114.625v206.75l517.012 529.844 334.238-334.266-529.812-516.953zM384 224c0-53.019-42.981-96-96-96s-96 42.981-96 96c0 53.019 42.981 96 96 96s96-42.981 96-96z" />
<glyph unicode="&#xe658;" glyph-name="tag" data-tags="tag" d="M768 256h-768v384h768l256-192z" />
<glyph unicode="&#xe659;" glyph-name="layers" data-tags="layers" d="M1025.498 670.502l-512-288-512 288 512 288zM513.498 254.003l-452 254.246-60-33.747 512-288 512 288-60 33.747zM513.498 64.249l-452 254.253-60-33.754 512-288 512 288-60 33.754z" />
<glyph unicode="&#xe65a;" glyph-name="left-arrow" data-tags="left-arrow" d="M322.252 576l320.058 320h-226.31l-416-416 416-416h226.252l-320 320h701.748v192z" />
<glyph unicode="&#xe65b;" glyph-name="right-arrow" data-tags="right-arrow" d="M701.747 576l-320.058 320h226.311l416-416-416-416h-226.253l320 320h-701.747v192z" />
<glyph unicode="&#xe65c;" glyph-name="link-external" data-tags="link-external" d="M832 0h-768v768h448v64h-512v-896h896v448h-64zM672 704c-265.125 0-480-214.937-480-480 0-10.754 0.934-21.375 1.625-32h128c-0.941 10.625-1.625 21.246-1.625 32 0 194.094 157.937 352 352 352 10.809 0 96.129 0 96.129 0l-192-192h128l255.871 256-255.871 256h-128l192-192c0 0-85.32 0-96.129 0z" />
<glyph unicode="&#xe65d;" glyph-name="link" data-tags="link" d="M916.262 385.746l-131.766 141.633c2.43-36.195-1.098-72.387-11.359-103.723l90.559-90.477c65.805-65.805 65.805-172.895 0-238.699-31.727-31.805-74.105-49.277-119.148-49.277-45.121 0-87.508 17.473-119.309 49.359l-174.699 174.691c-65.723 65.801-65.723 172.734 0 238.465 19.43 19.5 43.559 33.523 67.215 39.324-2.664 4.852-5.246 9.48-8.926 13.234l-43.008 46.766c-27.035-12.922-49.277-28.195-67.848-46.766-45.82-45.902-71.133-106.93-71.133-171.867 0-64.867 25.312-125.895 71.133-171.727l174.699-174.691c45.902-45.906 106.93-71.207 171.875-71.207 64.785 0 125.809 25.301 171.715 71.129 94.789 94.793 94.789 249.039 0 343.832zM278.742 848.094c45.125 0 87.43-17.465 119.23-49.27l174.699-174.621c65.723-65.723 65.723-172.734 0-238.539-19.348-19.348-43.398-33.371-67.375-39.090 2.742-4.934 5.324-9.633 9.168-13.477l45.516-45.516c25.848 12.609 47.234 27.578 65.258 45.516 94.707 94.789 94.707 248.879 0 343.672l-174.699 174.613c-45.902 45.91-106.93 71.211-171.797 71.211-64.863 0-125.887-25.301-171.797-71.211-45.898-45.902-71.207-106.934-71.207-171.797s25.309-125.887 71.207-171.797l131.77-141.711c-2.434 36.191 1.098 72.387 11.359 103.641l-90.559 90.641c-31.809 31.727-49.352 74.105-49.352 119.227 0 45.125 17.543 87.43 49.352 119.238 31.805 31.805 74.105 49.27 119.227 49.27z" />
<glyph unicode="&#xe65e;" glyph-name="loading-indicator" data-tags="loading-indicator" d="M880.57 693.173c10.37-11.839 24.701-30.081 40.348-55.253 30.529-49.816 66.438-131.904 63.564-237.118-0.623-103.763-45.106-229.926-145.889-322.599-98.707-92.861-254.088-143.76-403.545-114.117-150.311 26.631-283.658 133.163-347.286 268.167-65.392 135.356-59.628 289.112-11.935 404.692 46.831 117.513 129.618 194.883 195.138 237.487 66.693 42.818 115.999 57.117 125.499 59.909 39.478 11.384 78.628 5.771 105.022-9.877 26.832-16.339 40.987-40.298 40.827-67.361-2.539-54.953-44.994-97.247-91.53-111.292-6.067-1.637-37.059-8.252-82.037-31.679-44.004-23.509-103.146-68.592-141.761-144.693-38.911-74.186-54.351-181.511-16.142-283.89 37.051-101.909 129.331-193.873 246.192-225.86 116.126-34.481 248.739-6.367 341.474 65.914 94.212 71.804 146.016 180.723 155.373 277.118 11.807 97.482-14.873 179.67-40.34 231.116-13.013 25.97-25.515 45.322-34.704 57.976-9.396 12.551-14.402 19.238-14.402 19.238s5.612-6.215 16.134-17.88z" />
<glyph unicode="&#xe65f;" glyph-name="maps" data-tags="maps" d="M0 960v-1024h1024v1024h-1024zM544.901 577.7l0.701-3.4c5.596-27.602 8.699-53.402-14.751-66.099-16.625-9.001-25.329-24.499-32.425-37.002-8.95-15.898-13.251-21.898-22.876-21.898-5.1 0-9.098 2.698-15.575 7.7-7.977 6.098-17.874 13.599-32.952 13.599-22.149 0-40.172-19.4-40.172-43.197 0-15.201-13.476-43.3-32.676-43.3-15.724 0-20.874 5.499-24.402 11.796-9.498 17.003-21.299 38.2-48.374 38.2-27.177 0-49.3-23.501-49.3-52.301 0-9.201 1.9-16.297 3.528-22.497 1.398-5.299 2.647-9.902 2.647-15.304 0-7.798-3.277-13.696-7.373-21.299-4.854-8.899-10.849-19.896-10.849-34.898 0-19.599 17.997-35.599 40.146-35.599 12.549 0 20.9 3.297 27.628 5.898 6.252 2.499 10.624 3.999 17.9 3.302 3.323-0.302 6.799-9.601 6.799-16 0-10.301-8.801-19.103-18.923-29.199-16.451-16.405-38.999-38.805-20.429-75.802 7.050-14.203 24.253-18.202 40.878-22.103 7.675-1.797 13.302-2.995 17.874-4.198 0 0 8.177-10.849 10.225-17.147-0.548-4.051 0.425-7.352 0.425-7.352-0.148-4.803-1.326-10.051-5.448-16.2-8.1-12.201-17.551-19.103-27.576-26.399-19.948-14.602-36.526-17.101-37.002-47.002h-208.548v896h687.324c0.952-18.499-28.872-38.999-28.872-38.999l-31.355-18.601c-33.72-21.499-72.12-54.502-72.12-81.9 0-12.099 4.797-20.7 8.622-27.5 3.2-5.699 5.028-9.103 5.028-13.399 0-6.103-4.029-10.102-13.153-17.9-7.951-6.902-17.050-14.505-21.176-26.9-1.372-4.204-2.048-8.402-2.048-12.8 0-4.403 0.927-9.8 2.028-15.601 0.896-4.9 2.847-15.099 1.347-17.5 0 0-1.751-1.3-8.274-1.3l-5.55 0.2c-11.873 0-23.997-9.702-31.401-18.601-5.473-6.6-11.571-16.901-9.498-27.5zM960 0h-295.399c-6.6 39.050-43.151 40.248-69.35 49.802-9.201 3.4-18.704 6.799-27.454 11.3-11.32 5.898-11.197 18.749-9.446 28.498 0 0 3.251 9.702 2.898 11.802l0.051 0.097-0.051 0.051c-0.174 1.101-0.374 2.099-0.374 3.502 0 7.347 6.799 10.849 22.349 18.35 16.251 7.946 38.426 18.447 38.426 44.498 0 9.349-4.126 15.601-6.902 19.799-1.725 2.601-2.248 3.502-2.248 4.25 0 5.499 2.15 9.149 10.598 16.753 9.052 8.1 20.101 19.2 20.101 38.098v29.701c0 3 8.602 6.298 19.348 0.998 5.299-2.499 13.153-6.001 22.876-6.001 21.524 0 33.249 15.8 41.574 27.3 7.7 10.604 10.624 16.502 18.125 15.304 7.501-1.3 4.751-1.603 10.378-13.102 3.871-7.997 8.346-17.199 16.65-24.402 14.52-12.698 31.324-16.896 48.2-18.196 16.799-2.703 39.598-4.403 63.872-0.2l5.376 0.895c11.75 2.105 21.975 2.704 31.401 2.151 0 0 2.847-0.696 4.398-0.2 12.477-1.398 22.999-5.647 31.401-14.648l3.2-7.951c0.097-0.148-0.103-0.297 0-0.451v-237.998z" />
<glyph unicode="&#xe660;" glyph-name="marketplace" data-tags="marketplace" d="M832 640h-127.797c-0.32 61.797-1.219 117.145-3.43 128-14.828 73.031-79.367 128-156.773 128-88.828 0-160-72.152-160-160v-96h-128l-128-704h832l-128 704zM448 640.316c0 23.953 0 55.195 0 95.684 0 52.937 43.063 96 96 96s96-43.063 96-96c0-46.48 0-75.578 0-96h-192c0 0.051 0 0.328 0 0.316z" />
<glyph unicode="&#xe661;" glyph-name="media" data-tags="media" d="M688 576c-42 3.5-109-133.625-144-123.125-17.125 5.121-25.688 40.371-96 128-37.312 46.496-56 64-104.688-7.129-31.937-46.621-169.312-140.746-187.313-148.871-6.718-3.031-16.234 0.098-27.999 2.512v-107.387h640v148.055c-30.328 53.227-54.516 105.789-80 107.945zM704 672c0-53.019-42.981-96-96-96s-96 42.981-96 96c0 53.019 42.981 96 96 96s96-42.981 96-96zM896 768v128h-896v-704h128v-128h896v704h-128zM64 256v576h768v-576h-768zM960 128h-768v64h704v512h64v-576z" />
<glyph unicode="&#xe662;" glyph-name="media2" data-tags="media2" d="M960 768h-64v-448h-320v-192h128v-128h-384v128h128v192h-320v448h-64v128h896v-128zM768 448v320h-512v-320h512z" />
<glyph unicode="&#xe663;" glyph-name="menu" data-tags="menu" d="M896 848c0-44.186-35.814-80-80-80h-672c-44.186 0-80 35.814-80 80v32c0 44.185 35.814 80 80 80h672c44.186 0 80-35.815 80-80v-32zM896 496c0 44.185-35.814 80-80 80h-672c-44.186 0-80-35.815-80-80v-32c0-44.186 35.814-80 80-80h672c44.186 0 80 35.814 80 80v32zM896 112c0 44.185-35.814 80-80 80h-672c-44.186 0-80-35.815-80-80v-32c0-44.186 35.814-80 80-80h672c44.186 0 80 35.814 80 80v32z" />
<glyph unicode="&#xe664;" glyph-name="mobile" data-tags="mobile" d="M704 960h-446.941c-35.922 0-65.059-30.219-65.059-67.516v-889.043c0-37.223 29.137-67.441 65.059-67.441h446.941c35.906 0 64 30.219 64 67.441v889.043c0 37.297-28.094 67.516-64 67.516zM479.992-22.23c-29.969 0-54.211 24.297-54.211 54.266s24.242 54.195 54.211 54.195c29.895 0 54.227-24.227 54.227-54.195s-24.332-54.266-54.227-54.266zM704 128h-448v704h448v-704z" />
<glyph unicode="&#xe665;" glyph-name="phone" data-tags="phone" d="M336.662 953.083c-76.101-57.189-133.866-131.218-171.080-213.951 51.622-138.619 114.713-274.947 191.142-407.326s162.946-255.181 257.183-369.197c90.256-9.139 183.249 3.873 270.827 41.184 21.601 9.203 27.724 36.638 11.996 54.071-48.091 53.3-94.031 109.175-137.839 167.349-11.231 14.914-32.27 18.043-47.156 6.775l-51.061-38.652c-15.382-11.644-37.488-7.171-47.134 9.536l-240.068 415.81c-9.646 16.707-2.466 38.088 15.309 45.587l59.004 24.894c17.201 7.257 25.011 27.043 17.711 44.226-28.477 67.026-53.896 134.749-76.009 203.047-7.233 22.338-34.054 30.752-52.825 16.647z" />
<glyph unicode="&#xe666;" glyph-name="navigation" data-tags="navigation" d="M426.682 362.659l85.318-426.659 512 1024-1024-512z" />
<glyph unicode="&#xe667;" glyph-name="pan" data-tags="pan" d="M1025.498 446.502l-192 192v-128h-257.498v257.498h128l-190.502 190.502-192-190.502h128v-257.498h-257.498v128l-190.502-192 190.502-192v129.498h257.498v-257.498h-128l192-192 192 192h-129.498v257.498h257.498v-129.498z" />
<glyph unicode="&#xe668;" glyph-name="printer" data-tags="printer" d="M192 384v-448h640v448h-640zM704 64h-384v192h384v-192zM192 960v-448h640v448h-640zM704 640h-384v192h384v-192zM0 640v-512h320v128h-192v256h768v-256h-128v-128h256v512z" />
<glyph unicode="&#xe669;" glyph-name="pie-chart" data-tags="pie-chart" d="M502.688-28.437c-204.781 0.063-386.344 130.375-451.844 324.25-53.563 158.688-19.406 334.688 88.906 462l309.125-347.437 183.469-420.75c-42.344-12-85.937-18.062-129.656-18.062v0zM236.969 844.437c35.344 23.75 73.312 42.5 113 55.875 49.594 16.812 100.937 25.25 152.625 25.25 113.625 0 223.156-40.437 309.656-114.188l-304.719-271.562-270.563 304.625zM642.094 290.812l234.688-137.437c-35.094-44.563-77.219-81.937-125.5-111.437l-109.188 248.875zM612.312 459.063l286.375 255.063c23.563-35.188 42.312-73.125 55.812-112.875 37.156-110 32.875-228.812-11.906-335.812l-330.281 193.625z" />
<glyph unicode="&#xe66a;" glyph-name="chart" data-tags="chart" d="M960 128v-64h-896v768h64v-704h64v448h192v-448h64v576h192v-576h64v256h192v-256h64z" />
<glyph unicode="&#xe66b;" glyph-name="line-chart" data-tags="line-chart" d="M128 128v704h-64v-768h896v64zM320 390.398c32.621 0 62.090 13.012 83.93 33.922l119.461-71.684c-2.926-10.449-4.992-21.25-4.992-32.637 0-67.156 54.445-121.602 121.602-121.602s121.602 54.445 121.602 121.602c0 38.512-18.258 72.43-46.195 94.711l100.012 233.359c5.473-0.754 10.902-1.672 16.582-1.672 67.156 0 121.602 54.445 121.602 121.602s-54.445 121.602-121.602 121.602-121.602-54.445-121.602-121.602c0-38.512 18.258-72.43 46.195-94.711l-100.012-233.359c-5.473 0.754-10.902 1.672-16.582 1.672-32.617 0-62.090-13.012-83.926-33.918l-119.465 71.676c2.926 10.453 4.992 21.254 4.992 32.641 0 67.156-54.445 121.602-121.602 121.602s-121.602-54.445-121.602-121.602 54.445-121.602 121.602-121.602z" />
<glyph unicode="&#xe66c;" glyph-name="question" data-tags="question" d="M512 960c-282.811 0-512-229.191-512-512s229.189-512 512-512c282.808 0 512 229.19 512 512s-229.192 512-512 512zM576 64h-128v128h128v-128zM613.248 460.499c-44.059-41.875-37.248-39.75-37.248-94.125v-46.374h-134.753v46.374c0 56.499 31.686 80.25 66.752 111.251 9.69 8.627 20.001 17.875 30.625 28.378l18.752 17.747c36.747 36.749 71.371 71.251 71.371 125.126 0 63.124-39.622 103.872-100.998 103.872-53.248 0-79.251-24.748-92.749-88.25l-4.998-24.499h-110.002l2.501 33.747c13.627 100.378 88.813 158.253 206.246 158.253 116 0 191.002-70.752 191.002-180.25 0-85.126-46.125-135.002-106.501-191.251z" />
<glyph unicode="&#xe66d;" glyph-name="resend-invitation" data-tags="resend-invitation" d="M768 704h-512v64h512v-64zM704 576v64h-384v-64h384zM64 896h896v-384h64v448h-1024v-640h384v64h-320v512zM1024 224c0 158.809-129.19 288-288 288s-288-129.191-288-288c0-76.878 29.939-149.217 84.378-203.655l4.499-4.531 58.874 58.906-4.563 4.531c-38.688 38.752-60 90.158-60 144.75 0 112.966 91.878 204.844 204.813 204.844s204.813-91.878 204.813-204.844c0-55.034-22.502-106.311-60.749-144.064l-112.064 112.064v-256h256l-85.312 85.312c53.184 52.876 85.312 125.222 85.312 202.688z" />
<glyph unicode="&#xe66e;" glyph-name="rotate" data-tags="rotate" d="M448 512h128v-128h-128v128zM848.434 64h-17.933c110.31 91.565 180.685 229.44 180.685 384 0 275.686-223.501 499.187-499.186 499.187-275.688 0-499.189-223.501-499.189-499.187 0-137.875 55.872-262.624 146.189-352.999l87.936 87.936c-67.936 67.936-110.003 161.69-110.003 265.063 0 206.809 168.256 375.065 375.067 375.065 206.808 0 375.064-168.256 375.064-375.065 0-107.623-46.189-204.064-119.064-272.435v144.435h-128c0-416.813 0-146.439 0-384 261.376 0-1.877 0 384 0v128h-175.566z" />
<glyph unicode="&#xe66f;" glyph-name="save" data-tags="save" d="M885.499 896h-746.624c-41.314 0-74.688-33.312-74.688-74.56v-597.44c0-19.687 7.749-38.81 21.874-52.813l149.312-149.312c13.875-14.003 33.126-21.875 52.814-21.875h597.312c41.31 0 74.688 33.376 74.688 74.688v746.752c0 41.248-33.378 74.56-74.688 74.56zM512.187 64h-192v192h192v-192zM832.187 64h-64v256h-512v-227.565l-64 56.813v160.064c0 41.312 33.374 74.688 74.688 74.688h490.624c41.31 0 74.688-33.376 74.688-74.688v-245.312zM832.187 512h-640v320h640v-320z" />
<glyph unicode="&#xe670;" glyph-name="settings" data-tags="settings" d="M902.374 485.811l108.314 74.189-28.25 86.937-131.187-3.622-46.253 63.558 44 123.686-73.933 53.69-104-80-74.752 24.25-37.126 125.875h-91.373l-37.126-125.875-74.752-24.25-104 80-73.933-53.69 44-123.686-46.253-63.558-131.187 3.622-28.25-86.937 108.25-74.189v-78.624l-108.25-74.189 28.25-86.938 131.187 3.629 46.253-63.565-44-123.686 73.933-53.69 104 80 74.752-24.25 37.126-125.875h91.373l37.126 125.875 74.752 24.25 104-80 73.933 53.69-44 123.686 46.253 63.565 131.187-3.629 28.25 86.938-108.314 74.189v78.624zM513.498 260.877c-102.496 0-185.626 83.123-185.626 185.626 0 102.496 83.13 185.626 185.626 185.626 102.502 0 185.626-83.13 185.626-185.626 0-102.502-83.123-185.626-185.626-185.626z" />
<glyph unicode="&#xe671;" glyph-name="settings2" data-tags="settings2" d="M610.752 631.872l94.746 85.568-24.685 59.494-127.501-6.496-35.872 35.872 6.496 127.501-59.501 24.691-85.562-94.752h-50.746l-85.568 94.752-59.494-24.691 6.496-127.501-35.872-35.872-127.565 6.496-24.627-59.494 94.752-85.568v-50.746l-94.752-85.562 24.627-59.501 127.565 6.496 35.872-35.872-6.496-127.501 59.494-24.685 85.568 94.746h50.746l85.562-94.746 59.501 24.685-6.496 127.501 35.872 35.872 127.501-6.496 24.685 59.501-94.746 85.562v50.746zM353.498 484.876c-67.123 0-121.626 54.496-121.626 121.626 0 67.123 54.502 121.626 121.626 121.626 67.13 0 121.626-54.503 121.626-121.626 0-67.13-54.496-121.626-121.626-121.626zM875.123 220l-15.501 26.938 10.003 92.25-41.69 24.128-74.874-54.816h-31.123l-74.874 54.816-41.69-24.128 9.997-92.25-15.558-26.938-84.877-37.44v-48.122l84.877-37.44 15.558-26.938-9.997-92.25 41.69-24.122 74.874 54.81h31.123l74.874-54.81 41.69 24.122-10.003 92.25 15.501 26.938 84.941 37.44v48.122l-84.941 37.44zM737.498 62.502c-52.998 0-96 42.995-96 96 0 52.998 43.002 96 96 96 53.005 0 96-43.002 96-96 0-53.005-42.995-96-96-96z" />
<glyph unicode="&#xe672;" glyph-name="share" data-tags="share" d="M729.31 640l-63.501-67.872 45.312-45.254 45.254 49.127h40.813l22.624-30.938-251.685-251.686c-16.757 11.123-35.694 19.251-56.128 23.373v476.998h32l32-25.747v-64h64v89.747l-160 166.253-160-166.253v-89.747h64v64l32 25.747h32v-476.998c-20.437-4.122-39.374-12.25-56.128-23.373l-251.688 251.686 22.624 30.938h40.813l45.254-49.127 45.248 45.254-63.437 67.872h-230.686v-230.688l67.87-63.501 45.254 45.312-49.125 45.254v40.813l30.936 22.624 251.688-251.686c-16.75-25.255-26.624-55.501-26.624-88.128 0-88.378 71.621-160 160-160 88.376 0 160 71.622 160 160 0 32.627-9.877 62.873-26.624 88.128l251.685 251.686 30.939-22.624v-40.813l-49.128-45.254 45.254-45.312 67.874 63.501v230.688h-230.69zM480 64c-53 0-96 43.001-96 96s43 96 96 96c52.997 0 96-43.002 96-96s-43.003-96-96-96z" />
<glyph unicode="&#xe673;" glyph-name="sign-out" data-tags="sign-out" d="M1024 960v-1024h-640v448h128v-320h384v768h-384v-256h-128v384h640zM235.44 347.954l-103.759 100.046h636.319v64h-636.319l103.759 100.046-27.954 27.954-160.112-160 160.112-160 27.954 27.954z" />
<glyph unicode="&#xe674;" glyph-name="support" data-tags="support" d="M227.238 576c-1.199 10.645-3.238 21.043-3.238 32 0 158.812 129.25 288 288.188 288 158.688 0 287.812-129.188 287.812-288s-129.125-288-287.812-288c-17.672 0-32-14.328-32-32s14.328-32 32-32c160.699 0 296.258 108.496 338.172 256h54.914c29.156 0 52.793 23.637 52.793 52.793v86.414c0 29.156-23.637 52.793-52.793 52.793h-54.914c-41.914 147.504-177.473 256-338.172 256-194.188 0-352.188-157.937-352.188-352 0-10.801 0.664-21.445 1.621-32h65.617zM736.004 608c0 123.773-100.359 224-223.816 224-123.902 0-224.184-100.227-224.184-224 0-123.625 100.281-224 224.184-224 123.457 0 223.816 100.375 223.816 224zM1013.32-27.141c-13.063 174.297-327.016 219.141-501.312 219.141-173.793 0-488.293-45.012-501.363-219.141-0.941-12.855-1.816-25.004-2.664-36.859h1008.004c-0.848 11.855-1.723 24.004-2.664 36.859z" />
<glyph unicode="&#xe675;" glyph-name="user" data-tags="user" d="M512.156 452.125c103.531 0 187.691 84.188 187.691 187.875 0 103.812-84.16 187.875-187.691 187.875-103.906 0-188-84.063-188-187.875 0-103.688 84.094-187.875 188-187.875zM882.309 222.125c-9.648 128.75-241.559 161.875-370.309 161.875-128.375 0-360.688-33.25-370.344-161.875-7.156-97.625-11.5-163.871-13.031-222.125h766.715c-1.496 58.254-5.875 124.5-13.031 222.125z" />
<glyph unicode="&#xe676;" glyph-name="time-clock" data-tags="time-clock" d="M513.496 945.688c-275.684 0-499.188-223.434-499.188-499.188 0-275.691 223.504-499.184 499.188-499.184 275.75 0 499.188 223.492 499.188 499.184 0 275.754-223.438 499.188-499.188 499.188zM513.496 24.129c-232.934 0-422.371 189.434-422.371 422.371s189.437 422.41 422.371 422.41c232.941 0 422.375-189.473 422.375-422.41s-189.434-422.371-422.375-422.371zM576 512v256h-128v-384c279.193 0-246.62 0 384 0v128h-256z" />
<glyph unicode="&#xe677;" glyph-name="trash" data-tags="trash" d="M640 896v64h-320v-64h-256v-128h832v128zM192-64h576l64 768h-704l64-768zM640 608c0 17.602 14.398 32 32 32s32-14.398 32-32v-576c0-17.602-14.398-32-32-32s-32 14.398-32 32v576zM448 608c0 17.602 14.398 32 32 32s32-14.398 32-32v-576c0-17.602-14.398-32-32-32s-32 14.398-32 32v576zM256 608c0 17.602 14.398 32 32 32s32-14.398 32-32v-576c0-17.602-14.398-32-32-32s-32 14.398-32 32v576z" />
<glyph unicode="&#xe678;" glyph-name="upload" data-tags="upload" d="M256 320h192v-320h128v320h192l-256 256zM866.563 678.625c-20.875 151.934-143.5 268.688-292.125 268.688-111.375 0-208.125-65.437-258.625-161.969-13.875 3.75-28.188 6.375-43 6.375-82 0-143.063-61.094-148.688-138.441-69.5-35.684-117.75-107.781-117.75-191.090 0-113.191 92.5-206.188 185.625-206.188v76.812c-49.312 0-108.812 57.688-108.812 129.375 0 51.656 29.125 98.688 76 122.777l38.375 19.719 3.188 43.035c2.875 39.563 32.5 67.188 72.063 67.188 6.188 0 13.688-1.184 22.937-3.688l59.563-16.098 28.563 54.625c38.937 74.504 112 120.754 190.563 120.754 107.312 0 200.188-86.969 216.063-202.348l6.5-47.492 45.563-14.973c58.75-19.379 98.25-74.566 98.25-137.344 0-75.098-59.5-135.531-108.812-135.531v-76.812c90.812 0 185.625 93.937 185.625 212.344 0 98.25-63.438 181.434-151.063 210.281z" />
<glyph unicode="&#xe679;" glyph-name="download" data-tags="download" d="M768 192l-256-256-256 256h192v320h128v-320h192zM866.56 678.623c-20.87 151.936-143.494 268.691-292.122 268.691-111.373 0-208.128-65.44-258.624-161.97-13.875 3.75-28.192 6.374-43.002 6.374-82.003 0-143.066-61.094-148.685-138.438-69.504-35.686-117.754-107.782-117.754-191.091 0-113.19 92.499-206.188 185.626-206.188 22.374 0 43.565 0 64 0 22.189 0 43.501 0 64 0v76.812h-128c-49.312 0-108.813 57.69-108.813 129.376 0 51.654 29.126 98.688 76 122.778l38.374 19.718 3.187 43.034c2.874 39.565 32.499 67.187 72.064 67.187 6.189 0 13.69-1.184 22.938-3.686l59.565-16.096 28.557 54.624c38.938 74.502 112 120.755 190.566 120.755 107.309 0 200.186-86.97 216.064-202.349l6.496-47.494 45.562-14.97c58.752-19.379 98.253-74.566 98.253-137.344 0-75.098-59.501-135.533-108.813-135.533h-128v-76.812c24.435 0 44.998 0 64 0 22.874 0 43.373 0 64 0 90.81 0 185.626 93.938 185.626 212.345 0 98.247-63.437 181.434-151.066 210.278z" />
<glyph unicode="&#xe67a;" glyph-name="zoom-in-magnifying-glass" data-tags="zoom-in-magnifying-glass" d="M1011.437 69.191l-196.25 196.371c-16.75 16.625-43.75 16.625-60.379 0l-1.121-1.129-81.063 81.063-0.441-0.434c116.879 145.777 109.504 358.25-25.684 493.437-144.937 144.871-380 145-524.937 0-145-145.004-144.937-380 0-525.004 134.566-134.527 345.937-142.559 491.684-27.121l0.129-0.098-1.063-1.063 81.312-81.281c-15.566-16.684-15.5-42.742 0.812-59.121l196.316-196.25c16.684-16.75 43.684-16.75 60.367 0l60.316 60.25c16.691 16.75 16.746 43.75 0 60.379zM569.937 390.125c-102.688-102.723-269.188-102.723-371.812 0-102.688 102.688-102.754 269.188 0 371.902 102.625 102.566 269.125 102.566 371.812-0.121 102.625-102.594 102.688-269.094 0-371.781zM448 767.992l-127.996 0.004v-127.996h-128.004v-128h128.004v-128.004l127.996-0.004v128.008h128v128h-128z" />
<glyph unicode="&#xe67b;" glyph-name="search" data-tags="search" d="M1011.436 69.19l-196.25 196.371c-16.749 16.627-43.75 16.627-60.378 0l-1.12-1.126-81.062 81.062-0.442-0.435c116.877 145.779 109.504 358.253-25.683 493.44-144.941 144.87-380 144.998-524.941 0-144.998-145.005-144.934-380 0-525.005 134.567-134.528 345.939-142.56 491.687-27.123l0.128-0.096-1.063-1.062 81.312-81.28c-15.565-16.685-15.501-42.746 0.813-59.123l196.314-196.25c16.684-16.749 43.686-16.749 60.37 0l60.314 60.25c16.691 16.749 16.749 43.75 0 60.378zM569.939 390.124c-102.688-102.72-269.19-102.72-371.814 0-102.688 102.688-102.752 269.19 0 371.904 102.624 102.566 269.126 102.566 371.814-0.122 102.624-102.592 102.688-269.094 0-371.782z" />
<glyph unicode="&#xe67c;" glyph-name="zoom-out-magnifying-glass" data-tags="zoom-out-magnifying-glass" d="M1011.437 69.191l-196.25 196.371c-16.75 16.625-43.75 16.625-60.379 0l-1.121-1.129-81.063 81.063-0.441-0.434c116.879 145.777 109.504 358.25-25.684 493.437-144.937 144.871-380 145-524.937 0-145-145.004-144.937-380 0-525.004 134.566-134.527 345.937-142.559 491.684-27.121l0.129-0.098-1.063-1.063 81.312-81.281c-15.566-16.684-15.5-42.742 0.812-59.121l196.316-196.25c16.684-16.75 43.684-16.75 60.367 0l60.316 60.25c16.691 16.75 16.746 43.75 0 60.379zM569.937 390.125c-102.688-102.723-269.188-102.723-371.812 0-102.688 102.688-102.754 269.188 0 371.902 102.625 102.566 269.125 102.566 371.812-0.121 102.625-102.594 102.688-269.094 0-371.781zM192 640h384v-128h-384v128z" />
<glyph unicode="&#xe67d;" glyph-name="locked" data-tags="locked" d="M832 512h-640c-35.199 0-64-28.801-64-64v-448c0-35.199 28.801-64 64-64h640c35.199 0 64 28.801 64 64v448c0 35.199-28.801 64-64 64zM832 0h-640v448h640v-448zM384 640c0 70.563 57.406 128 128 128s128-57.437 128-128v-128h64v128c0 105.875-86.125 192-192 192s-192-86.125-192-192v-128h64v128zM256 640c0 140.801 115.199 256 256 256s256-115.199 256-256v-128h64v128c0 176.437-143.563 320-320 320s-320-143.563-320-320v-128h64v128zM576 256v64h-64v64h-64v-320h64v64h64v64h-64v64z" />
<glyph unicode="&#xe67e;" glyph-name="unlocked" data-tags="unlocked" d="M704 512h-640c-35.199 0-64-28.801-64-64v-448c0-35.199 28.801-64 64-64h640c35.199 0 64 28.801 64 64v448c0 35.199-28.801 64-64 64zM704 0h-640v448h640v-448zM768 960c-141.375 0-255.969-114.625-255.969-256l-0.031-192h64v192c0 105.996 85.937 192 191.969 192 106.035 0 192-86.004 192-192h0.031v-64h-64v64c0 70.688-57.312 128-128 128s-128-57.312-128-128v-192h64v192c0 35.316 28.66 64 64 64s64.031-28.684 64.031-64v-128h191.969v128c0 141.375-114.625 256-256 256zM448 256v64h-64v64h-64v-320h64v64h64v64h-64v64z" />
<glyph unicode="&#xe67f;" glyph-name="favorites" data-tags="favorites" d="M513.376 948.249l120.627-372.249h389.997l-315.501-229.498 121.247-372-316.37 230.183-316.443-230.183 121.19 372-318.123 229.498h392.685z" />
<glyph unicode="&#xe680;" glyph-name="compass" data-tags="Compass" d="M512 960l-192-512 192-512 192 512zM396.8 384h230.4l-115.2-332.8z" />
<glyph unicode="&#xe681;" glyph-name="down" data-tags="down" d="M895.999 672.001l-0.001-160-384.003-384.001-384 384 0.001 160 384-384 384.003 384.001z" />
<glyph unicode="&#xe682;" glyph-name="up" data-tags="up" d="M128.005 224.001v160l383.998 383.999 384-384v-160l-384 384-383.998-383.999z" />
<glyph unicode="&#xe683;" glyph-name="chat" data-tags="chat" d="M0 631.056c0 150.678 164.382 273.302 366.539 273.302s366.645-122.623 366.645-273.302c0-150.69-164.488-273.302-366.645-273.302-46.071 0-91.199 6.516-134.229 19.218l-232.31-186.912 132.45 231.427c-84.282 52.363-132.45 128.15-132.45 209.569zM1024 361.648c0 110.387-88.688 205.117-215.363 248.191-14.016-183.168-206.648-328.902-442.105-328.902-19.836 0-39.555 1.082-59.094 3.16 45.121-112.816 184.211-195.754 350.023-195.754 46.070 0 91.199 6.516 134.23 19.219l232.309-171.562-132.449 216.078c84.281 52.363 132.449 128.148 132.449 209.57z" />
<glyph unicode="&#xe684;" glyph-name="dock-bottom" data-tags="dock-bottom" d="M960 64v768h-896v-768h896zM128 768h768v-512h-768v512z" />
<glyph unicode="&#xe685;" glyph-name="dock-left" data-tags="dock-left" d="M960 64v768h-896v-768h896zM256 768h640v-640h-640v640z" />
<glyph unicode="&#xe686;" glyph-name="dock-right" data-tags="dock-right" d="M64 832v-768h896v768h-896zM768 128h-640v640h640v-640z" />
<glyph unicode="&#xe687;" glyph-name="organization" data-tags="organization" d="M960 64v768h-384v64h-384v-64h-128v-768h-64v-64h448v192h128v-192h448v64h-64zM320 320h-128v128h128v-128zM320 576h-128v128h128v-128zM576 320h-128v128h128v-128zM576 576h-128v128h128v-128zM832 320h-128v128h128v-128zM832 576h-128v128h128v-128z" />
<glyph unicode="&#xe900;" glyph-name="north-navigation" data-tags="north-navigation" d="M512 192l384-254.080-384 1022.080-384-1022.080 384 254.080z" />
<glyph unicode="&#xe901;" glyph-name="locate-circled" data-tags="locate-circled" d="M512 945.92c-275.149-0.729-497.918-223.948-497.918-499.198 0-275.701 223.499-499.2 499.2-499.2s499.2 223.499 499.2 499.2c0 0.449-0.001 0.899-0.002 1.348-0.727 275.081-223.947 497.852-499.198 497.852-0.451 0-0.901-0.001-1.351-0.002zM512 24.32c-232.733 0.729-421.118 189.564-421.118 422.398 0 233.285 189.115 422.4 422.4 422.4 232.834 0 421.669-188.385 422.398-421.048 0-0.26 0.001-0.485 0.001-0.71 0-233.639-189.401-423.040-423.040-423.040-0.225 0-0.45 0-0.675 0.001zM512 768l-256-576 256 128 256-128-256 576z" />
<glyph unicode="&#xe902;" glyph-name="dial" data-tags="dial" d="M513.496 945.688c-275.684 0-499.188-223.434-499.188-499.188 0-275.691 223.504-499.184 499.188-499.184 275.75 0 499.188 223.492 499.188 499.184 0 275.754-223.438 499.188-499.188 499.188zM513.496 24.129c-232.934 0-422.371 189.434-422.371 422.371 0 210.605 155.027 385.172 356.875 416.801v-287.301h128v287.762c203.316-30.359 359.871-205.613 359.871-417.262 0-232.937-189.434-422.371-422.375-422.371z" />
<glyph unicode="&#xe903;" glyph-name="polygon" data-tags="polygon" d="M448 512l-320 192v-704h768v896l-448-384zM832 64h-640v526.937l262.625-157.559 377.375 323.5v-692.879z" />
<glyph unicode="&#xe904;" glyph-name="polyline" data-tags="polyline" d="M832 768v-177.262l-127.23-206.738h-105.965l-150.805 135.723v120.277h-192v-171.922l-136.348-212.078h-119.652v-192h192v192h-19.082l123.414 192h151.668v11.484l128-115.203v-152.281h192v192h-10.621l118.152 192h148.469v192h-192zM128 128h-64v64h64v-64zM384 512h-64v64h64v-64zM704 256h-64v64h64v-64zM960 640h-64v64h64v-64z" />
</font>
</defs>
</svg>
